От заката до рассвета / From Dusk Till Dawn: The Series (2016) WEB-DL [H.264/720p] (Сезон 3, серии 01-10 из 10) [IdeaFilm]

03-Сен-2016 17:04

От заката до рассвета / From Dusk Till Dawn: The Series (2016) WEB-DL [H.264/720p] (Сезон 1, серии 01-10 из 10) [IdeaFilm]


picТелекомпания: FactoryMade Ventures, Miramax Films, Rodriguez International Pictures
Жанр: Ужасы, боевик, криминал, вампиры
Режиссер: Роберт Родригес, Джо Менендес, Эдуардо Санчес
В ролях: Ди Джей Котрона, Зейн Холц, Джесси Гарсиа, Эйса Гонсалес, Уилмер Вальдеррама, Эдрианн Палики и другие
Описание:
Сет Гекко, грабитель банков, и его не совсем психически стабильный братец Ричард находятся в розыске. Разыскивают их не только ФБР, но и техасские законники — шериф МакГроу и рейнджер Гонсалес, которые утраивают усилия после того, как после очередного ограбления, устроенного братьями Гекко, в банке остается несколько трупов. Пытаясь удрать в Мексику, Гекко сталкиваются с бывшим священником Джейкобом Фуллером и его семьей, которых берут в заложники и в их же трейлере отправляются к мексиканской границе. Заехав в небольшой стрип-клуб по дороге, они неудачно знакомятся с целой прорвой жаждущих крови вампиров и пытаются хотя бы дожить до рассвета, не говоря уже о том, чтобы истребить как можно больше чудовищ.


Перевод: Профессиональный многоголосый - IDEAFILM
Продолжительность: ~ 00:50:00
Качество видео: WEB-DL 720p
Субтитры: Отсутствуют
Видео: MPEG-4 AVC, ~ 3500 Кбит/с, 1280x720
Аудио: Русский, английский (AC3, 6 ch, 384 Кбит/с)

Mediainfo:

Общее
Уникальный идентификатор                 : 236831107323259253292346662111676799614 (0xB22C031B52016D76BFF87333E4C51A7E)
Полное имя                               : D:\IDEAFILM\From.Dusk.Till.Dawn.The.Series.S03.WEB-DL.720p\From.Dusk.Till.Dawn.The.Series.S03E01.WEB-DL.720p-IDEAFILM.mkv
Формат                                   : Matroska
Версия формата                           : Version 4 / Version 2
Размер файла                             : 1,23 Гбайт
Продолжительность                        : 41 м.
Режим общего битрейта                    : Переменный
Общий поток                              : 4218 Кбит/сек
Дата кодирования                         : UTC 2016-09-03 13:30:46
Программа кодирования                    : mkvmerge v9.3.1 ('Mask Machine') 64bit
Библиотека кодирования                   : libebml v1.3.4 + libmatroska v1.4.5
Видео
Идентификатор                            : 1
Формат                                   : AVC
Формат/Информация                        : Advanced Video Codec
Профиль формата                          : Main@L3.2
Параметр CABAC формата                   : Да
Параметр ReFrames формата                : 3 кадра
Идентификатор кодека                     : V_MPEG4/ISO/AVC
Продолжительность                        : 41 м.
Вид битрейта                             : Переменный
Битрейт                                  : 3449 Кбит/сек
Максимальный битрейт                     : 3500 Кбит/сек
Ширина                                   : 1280 пикселей
Высота                                   : 720 пикселей
Соотношение сторон                       : 16:9
Режим частоты кадров                     : Постоянный
Частота кадров                           : 23,976 (24000/1001) кадра/сек
Стандарт вещания                         : NTSC
Цветовое пространство                    : YUV
Субдискретизация насыщенности            : 4:2:0
Битовая глубина                          : 8 бит
Тип развёртки                            : Прогрессивная
Бит/(Пиксели*Кадры)                      : 0.156
Размер потока                            : 1,01 Гбайт (82%)
Язык                                     : English
Default                                  : Да
Forced                                   : Нет
Цветовой диапазон                        : Limited
Аудио #1
Идентификатор                            : 2
Формат                                   : AC-3
Формат/Информация                        : Audio Coding 3
Расширение режима                        : CM (complete main)
Параметр Endianness формата              : Big
Идентификатор кодека                     : A_AC3
Продолжительность                        : 41 м.
Вид битрейта                             : Постоянный
Битрейт                                  : 384 Кбит/сек
Каналы                                   : 6 каналов
Расположение каналов                     : Front: L C R, Side: L R, LFE
Частота                                  : 48,0 КГц
Частота кадров                           : 31,250 кадров/сек (1536 spf)
Метод сжатия                             : С потерями
Размер потока                            : 115 Мбайт (9%)
Заголовок                                : IDEAFILM
Язык                                     : Russian
Default                                  : Да
Forced                                   : Нет
Аудио #2
Идентификатор                            : 3
Формат                                   : AC-3
Формат/Информация                        : Audio Coding 3
Расширение режима                        : CM (complete main)
Параметр Endianness формата              : Big
Идентификатор кодека                     : A_AC3
Продолжительность                        : 41 м.
Вид битрейта                             : Постоянный
Битрейт                                  : 384 Кбит/сек
Каналы                                   : 6 каналов
Расположение каналов                     : Front: L C R, Side: L R, LFE
Частота                                  : 48,0 КГц
Частота кадров                           : 31,250 кадров/сек (1536 spf)
Метод сжатия                             : С потерями
Задержка видео                           : 10 с.
Размер потока                            : 114 Мбайт (9%)
Язык                                     : English
Default                                  : Нет
Forced                                   : Нет

Скриншоты

pic pic pic pic