Бык / Bull (2016) HDTV [H.264/720p] (Сезон 1, серии 01-22 из 23) [IdeaFilm]

23-Сен-2016 01:56

Бык / Bull (2016) HDTV [H.264/720p] (Сезон 1, серии 01-22 из 23) [IdeaFilm]


picТелекомпания: John Stanley Productions
Жанр: Комедия
Режиссер: Саймон Гибни
В ролях: Роберт Линдсей, Морин Липман, Клаудия Джесси, Монтсеррат Ломбард, Тоби Уильямс, Ларрингтон Уолкер, Пэм Сент-Клемент
Описание:
Гениальный доктор помогает раскрывать судебные дела с помощью психологии интуиции и высоких технологий.


1xbet - Высокие коэффициенты. Большие выигрыши
http://bit.ly/2lyIZwl
Перевод: Профессиональный многоголосый - IDEAFILM
Продолжительность: ~ 00:50:00
Качество видео: HDTV 720p
Субтитры: Отсутствуют
Видео: MPEG-4 AVC, ~ 3500 Кбит/с, 1280x720
Аудио: Русский, английский (AC3, 6 ch, 384 Кбит/с)

Mediainfo:

Общее
Уникальный идентификатор                 : 206237923213892078361949018472413439213 (0x9B27FAACC2338911B8FDFE476A40A4ED)
Полное имя                               : D:\IDEAFILM\Bull.S01.HDTV.720p\Bull.S01E01.HDTV.720p_Epidemz.net.mkv
Формат                                   : Matroska
Версия формата                           : Version 4 / Version 2
Размер файла                             : 1,30 Гбайт
Продолжительность                        : 44 м. 3 с.
Режим общего битрейта                    : Переменный
Общий поток                              : 4233 Кбит/сек
Дата кодирования                         : UTC 2016-09-22 22:51:05
Программа кодирования                    : mkvmerge v9.2.0 ('Photograph') 64bit
Библиотека кодирования                   : libebml v1.3.3 + libmatroska v1.4.4
Видео
Идентификатор                            : 1
Формат                                   : AVC
Формат/Информация                        : Advanced Video Codec
Профиль формата                          : High@L3.2
Параметр CABAC формата                   : Да
Параметр ReFrames формата                : 3 кадра
Идентификатор кодека                     : V_MPEG4/ISO/AVC
Продолжительность                        : 44 м. 3 с.
Вид битрейта                             : Переменный
Битрейт                                  : 3464 Кбит/сек
Максимальный битрейт                     : 3600 Кбит/сек
Ширина                                   : 1280 пикселей
Высота                                   : 720 пикселей
Соотношение сторон                       : 16:9
Режим частоты кадров                     : Постоянный
Частота кадров                           : 23,976 (24000/1001) кадра/сек
Стандарт вещания                         : NTSC
Цветовое пространство                    : YUV
Субдискретизация насыщенности            : 4:2:0
Битовая глубина                          : 8 бит
Тип развёртки                            : Прогрессивная
Бит/(Пиксели*Кадры)                      : 0.157
Размер потока                            : 1,07 Гбайт (82%)
Язык                                     : English
Default                                  : Да
Forced                                   : Нет
Цветовой диапазон                        : Limited
Основные цвета                           : BT.709
Характеристики трансфера                 : BT.709
Коэффициенты матрицы                     : BT.709
Аудио #1
Идентификатор                            : 2
Формат                                   : AC-3
Формат/Информация                        : Audio Coding 3
Расширение режима                        : CM (complete main)
Параметр Endianness формата              : Big
Идентификатор кодека                     : A_AC3
Продолжительность                        : 44 м. 3 с.
Вид битрейта                             : Постоянный
Битрейт                                  : 384 Кбит/сек
Каналы                                   : 6 каналов
Расположение каналов                     : Front: L C R, Side: L R, LFE
Частота                                  : 48,0 КГц
Частота кадров                           : 31,250 кадров/сек (1536 spf)
Метод сжатия                             : С потерями
Размер потока                            : 121 Мбайт (9%)
Заголовок                                : IDEAFILM
Язык                                     : Russian
Default                                  : Да
Forced                                   : Нет
Аудио #2
Идентификатор                            : 3
Формат                                   : AC-3
Формат/Информация                        : Audio Coding 3
Расширение режима                        : CM (complete main)
Параметр Endianness формата              : Big
Идентификатор кодека                     : A_AC3
Продолжительность                        : 43 м. 53 с.
Вид битрейта                             : Постоянный
Битрейт                                  : 384 Кбит/сек
Каналы                                   : 6 каналов
Расположение каналов                     : Front: L C R, Side: L R, LFE
Частота                                  : 48,0 КГц
Частота кадров                           : 31,250 кадров/сек (1536 spf)
Метод сжатия                             : С потерями
Задержка видео                           : 10 с. 0 мс.
Размер потока                            : 121 Мбайт (9%)
Язык                                     : English
Default                                  : Нет
Forced                                   : Нет

Скриншоты

pic pic pic pic
Последний раз редактировалось: spee2k (2017-05-18 23:35), всего редактировалось 24 раз(а)
23-Сен-2016 08:41
Скорости бы.
23-Сен-2016 09:23
Я конечно очень извиняюсь, но у обеих раздач этого сериала, нет ни одного сида....
06-Апр-2017 21:38
Да, что-то я тоже заметил в последнее время, что хрен что скачивается с этого ресурса(((
21-Апр-2017 19:20
Опять 25, тут скорость 7,2кб/сек, на байбако 10мб/сек, отгадайте откуда буду качать?)))