Морская полиция: Спецотдел / NCIS: Naval Criminal Investigative Service (2016) HDTV [H.264/720p](Сезон 14, серии 01-24 из 24) [IdeaFilm]

23-Сен-2016 15:36

Морская полиция: Спецотдел / NCIS (2016) HDTV [H.264/720p] (Сезон 14, серии 01-24 из 24) [IdeaFilm]


picТелекомпания: CBS, Paramount Network Television Productions
Жанр: драма
Режиссер: Дональд П. Беллисарио, Дон МакГилл
В ролях: Виола Дэвис, Марк Хэрмон, Майкл Уэтерли, Поли Перретт, Дэвид МакКаллум, Шон Мюррэй, Брайан Дитцен, Джо Спано, Эмили Викершем
Описание:
Остросюжетный сериал о приключениях команды профессиональных спецагентов. Их миссия - расследовать преступления, которые каким-то образом связаны со служащими морской пехоты. Отдел расследований возглавляет суперагент Гиббс.


1xbet - Высокие коэффициенты. Большие выигрыши
http://bit.ly/2lyIZwl
Перевод: Профессиональный многоголосый - IDEAFILM
Продолжительность: ~ 00:42:30
Качество видео: HDTV
Субтитры: Отсутствуют
Видео: AVC, 1280x720 (16:9), 23.976 fps, 3 500 Kbps (0.143 bit/pixel)
Аудио: AC-3, 48.0 KHz, 6 ch, 384 Kbps, CBR (Russian)
Аудио: AC-3, 48.0 KHz, 6 ch, 384 Kbps, CBR (English)

Mediainfo:

Общее
Уникальный идентификатор                 : 229419426942736896734349174273514418886 (0xAC98930D0369AFFC9A7ACD950A4032C6)
Полное имя                               : D:\IDEAFILM\NCIS.S14.HDTV.720p\NCIS.S14E01.HDTV.720p-IDEAFILM.mkv
Формат                                   : Matroska
Версия формата                           : Version 4 / Version 2
Размер файла                             : 1,25 Гбайт
Продолжительность                        : 42 м. 3 с.
Режим общего битрейта                    : Переменный
Общий поток                              : 4247 Кбит/сек
Дата кодирования                         : UTC 2016-09-23 07:19:32
Программа кодирования                    : mkvmerge v9.2.0 ('Photograph') 64bit
Библиотека кодирования                   : libebml v1.3.3 + libmatroska v1.4.4
Видео
Идентификатор                            : 1
Формат                                   : AVC
Формат/Информация                        : Advanced Video Codec
Профиль формата                          : High@L3.2
Параметр CABAC формата                   : Да
Параметр ReFrames формата                : 3 кадра
Идентификатор кодека                     : V_MPEG4/ISO/AVC
Продолжительность                        : 42 м. 3 с.
Вид битрейта                             : Переменный
Битрейт                                  : 3479 Кбит/сек
Максимальный битрейт                     : 3600 Кбит/сек
Ширина                                   : 1280 пикселей
Высота                                   : 720 пикселей
Соотношение сторон                       : 16:9
Режим частоты кадров                     : Постоянный
Частота кадров                           : 23,976 (24000/1001) кадра/сек
Стандарт вещания                         : NTSC
Цветовое пространство                    : YUV
Субдискретизация насыщенности            : 4:2:0
Битовая глубина                          : 8 бит
Тип развёртки                            : Прогрессивная
Бит/(Пиксели*Кадры)                      : 0.157
Размер потока                            : 1,02 Гбайт (82%)
Язык                                     : English
Default                                  : Да
Forced                                   : Нет
Цветовой диапазон                        : Limited
Основные цвета                           : BT.709
Характеристики трансфера                 : BT.709
Коэффициенты матрицы                     : BT.709
Аудио #1
Идентификатор                            : 2
Формат                                   : AC-3
Формат/Информация                        : Audio Coding 3
Расширение режима                        : CM (complete main)
Параметр Endianness формата              : Big
Идентификатор кодека                     : A_AC3
Продолжительность                        : 42 м. 3 с.
Вид битрейта                             : Постоянный
Битрейт                                  : 384 Кбит/сек
Каналы                                   : 6 каналов
Расположение каналов                     : Front: L C R, Side: L R, LFE
Частота                                  : 48,0 КГц
Частота кадров                           : 31,250 кадров/сек (1536 spf)
Метод сжатия                             : С потерями
Размер потока                            : 116 Мбайт (9%)
Заголовок                                : IDEAFILM
Язык                                     : Russian
Default                                  : Да
Forced                                   : Нет
Аудио #2
Идентификатор                            : 3
Формат                                   : AC-3
Формат/Информация                        : Audio Coding 3
Расширение режима                        : CM (complete main)
Параметр Endianness формата              : Big
Идентификатор кодека                     : A_AC3
Продолжительность                        : 41 м. 53 с.
Вид битрейта                             : Постоянный
Битрейт                                  : 384 Кбит/сек
Каналы                                   : 6 каналов
Расположение каналов                     : Front: L C R, Side: L R, LFE
Частота                                  : 48,0 КГц
Частота кадров                           : 31,250 кадров/сек (1536 spf)
Метод сжатия                             : С потерями
Задержка видео                           : 10 с. 0 мс.
Размер потока                            : 115 Мбайт (9%)
Язык                                     : English
Default                                  : Нет
Forced                                   : Нет

Скриншоты

pic pic pic pic
Последний раз редактировалось: spee2k (2017-05-18 23:26), всего редактировалось 20 раз(а)
05-Ноя-2016 12:34
Спасибо за ваш труд))
Перевод на русском тише английских слов, исправить бы и идеально.
31-Янв-2017 23:25
раздавать то будем?
07-Апр-2017 17:47
Заголовок исправьте пожалуйста, все так 20 серий, а не 22
09-Май-2017 22:31
Название исправьте, 22 серии, а не как сейчас 21 серия.
Русский перевод звук увеличьте, а англ тише пожалуйста сделайте.
Спасибо :)
19-Май-2017 00:13
Ура, ура, ураааа!!!
Весь сезон, выходные - засяду за просмотр!
Вы - лучшие! СПАСИБО! :)
03-Июл-2017 22:00
Жаль, серии 17-22 на телефоне не проигрываются корректно.