Морская полиция: Спецотдел / NCIS: Naval Criminal Investigative Service (2016) HDTVRip [xvid/400p] (Сезон 14, серии 01-24 из 24) [IdeaFilm]

23-Сен-2016 15:36

Морская полиция: Спецотдел / NCIS (2016) HDTVRip [xvid/400p] (Сезон 14, серии 01-24 из 24) [IdeaFilm]


picТелекомпания: CBS, Paramount Network Television Productions
Жанр: драма
Режиссер: Дональд П. Беллисарио, Дон МакГилл
В ролях: Виола Дэвис, Марк Хэрмон, Майкл Уэтерли, Поли Перретт, Дэвид МакКаллум, Шон Мюррэй, Брайан Дитцен, Джо Спано, Эмили Викершем
Описание:
Остросюжетный сериал о приключениях команды профессиональных спецагентов. Их миссия - расследовать преступления, которые каким-то образом связаны со служащими морской пехоты. Отдел расследований возглавляет суперагент Гиббс.


1xbet - Высокие коэффициенты. Большие выигрыши
http://bit.ly/2lyIZwl
Перевод: Профессиональный многоголосый - IDEAFILM
Продолжительность: ~ 00:42:30
Качество видео: HDTVRip
Субтитры: Отсутствуют
Видео: xvid, 720x400 (16:9), 23.976 fps, 1 500 Kbps (0.143 bit/pixel)
Аудио: AC-3, 48.0 KHz, 6 ch, 384 Kbps, CBR (Russian)

Mediainfo:

Общее
Полное имя                               : D:\IDEAFILM\NCIS.S14.HDTVRip\NCIS.S14E01.HDTVRip-IDEAFILM.avi
Формат                                   : AVI
Формат/Информация                        : Audio Video Interleave
Размер файла                             : 569 Мбайт
Продолжительность                        : 42 м. 3 с.
Общий поток                              : 1892 Кбит/сек
Программа кодирования                    : VirtualDubMod 1.5.10.2 (build 2540/release)
Библиотека кодирования                   : VirtualDubMod build 2540/release
Видео
Идентификатор                            : 0
Формат                                   : MPEG-4 Visual
Профиль формата                          : Advanced Simple@L5
Параметр BVOP формата                    : 2
Параметр QPel формата                    : Нет
Параметр GMC формата                     : Без точки перехода
Параметр матрицы формата                 : Default (MPEG)
Идентификатор кодека                     : XVID
Идентификатор кодека/Подсказка           : XviD
Продолжительность                        : 42 м. 3 с.
Битрейт                                  : 1499 Кбит/сек
Ширина                                   : 720 пикселей
Высота                                   : 400 пикселей
Соотношение сторон                       : 16:9
Частота кадров                           : 23,976 (24000/1001) кадра/сек
Цветовое пространство                    : YUV
Субдискретизация насыщенности            : 4:2:0
Битовая глубина                          : 8 бит
Тип развёртки                            : Прогрессивная
Метод сжатия                             : С потерями
Бит/(Пиксели*Кадры)                      : 0.217
Размер потока                            : 451 Мбайт (79%)
Библиотека кодирования                   : XviD 1.2.1 (UTC 2008-12-04)
Аудио
Идентификатор                            : 1
Формат                                   : AC-3
Формат/Информация                        : Audio Coding 3
Расширение режима                        : CM (complete main)
Параметр Endianness формата              : Big
Идентификатор кодека                     : 2000
Продолжительность                        : 42 м. 3 с.
Вид битрейта                             : Постоянный
Битрейт                                  : 384 Кбит/сек
Каналы                                   : 6 каналов
Расположение каналов                     : Front: L C R, Side: L R, LFE
Частота                                  : 48,0 КГц
Частота кадров                           : 31,250 кадров/сек (1536 spf)
Метод сжатия                             : С потерями
Размер потока                            : 116 Мбайт (20%)
Выравнивание                             : Разделение по промежуткам
Продолжительность промежутка             : 42  мс. (1,00 видеокадр)
Время предзагрузки промежутка            : 500  мс.

Скриншоты

pic pic pic pic
Последний раз редактировалось: spee2k (2017-05-18 23:28), всего редактировалось 19 раз(а)
23-Ноя-2016 19:17
Господа, извините, но в 7-ой серии хотелось вашего звукорежисера удавить от слова совсем
уровень громкости перевода и голосов ГГ ОДИНАКОВЫЙ.
ПОлфильма вообще ХЗ что говорят...
Англорусский бутерброд из динамиков звучит...
Достаньте ему уши из жопы и вставьте обратно в голову. Ну и руки тоже...
23-Ноя-2016 23:47
519Господа, извините, но в 7-ой серии хотелось вашего звукорежисера удавить от слова совсем
уровень громкости перевода и голосов ГГ ОДИНАКОВЫЙ.
ПОлфильма вообще ХЗ что говорят...
Англорусский бутерброд из динамиков звучит...
Достаньте ему уши из жопы и вставьте обратно в голову. Ну и руки тоже...
Каким плеером пользуетесь? Только что проверил и всё звучит хорошо.
26-Ноя-2016 11:14
Dune HD TV101
берет по UPNP с homemediaserver
с предыдущими сериями такого нет.
16-Дек-2016 19:49
Это какой сезон 13 или 14 ? Может Вы все таки определитесь .
22-Дек-2016 19:42
похоже ошиблись с указанием сезона в заголовке
23-Дек-2016 05:32
549похоже ошиблись с указанием сезона в заголовке
Похоже ? Вы наверное шутите ?
Черным по белому написано :
В заголовке 14 сезон , чуть ниже 13 сезон и и в названии видео файлов 14 сезон .
Тут на похоже явно не тянет , тут ошибка которую нужно исправлять .
Только как видно админам все равно .