Флэш / The Flash (2016) WEB-DLRip [xvid/400p] (Сезон 3, серии 01-22 из 23) [IdeaFilm]

06-Окт-2016 22:05

Флэш / The Flash (2016) WEB-DLRip [xvid/400p] (Сезон 3, серии 01-22 из 23) [IdeaFilm]


picТелекомпания: Amblin Television, Full Fathom Five
Жанр: Фантастика, боевик
Режиссер: Дэвид Наттер
В ролях: Грант Гастин, Кэндис Паттон, Рик Коснетт, Даниэль Панабэйкер, Карлос Вальдес, Томас Кэвэна, Джесси Л. Мартин, Джон Уэсли Шипп, Стивен Амелл, Ёсиэ Бэнкрофт
Описание:
Из-за несчастного случая судмедэксперт Барри Аллен приобретает способность передвигаться с невероятной скоростью. Этот случай делает из него супергероя, которым он всегда мечтал стать. Защищая город, как ангел-хранитель, делая невозможное, спасая жизни со скоростью вспышки, по подсказке Оливера Куина (Стрела), он берёт себе и соответствующее имя - Флэш.


1xbet - Высокие коэффициенты. Большие выигрыши
http://bit.ly/2lyIZwl
Перевод: Профессиональный многоголосый - IDEAFILM
Продолжительность: ~ 00:50:00
Качество видео: WEB-DLRip
Субтитры: Отсутствуют
Видео: 720x400 (1.80:1), 23.976 fps, XviD build 50 ~1500 kbps avg, 0.23 bit/pixel
Аудио: 48 kHz, AC3 Dolby Digital, 3/2 (L,C,R,l,r) + LFE ch, ~384 kbps

Mediainfo:

Общее
Полное имя                               : D:\IDEAFILM\The.Flash.S03.WEB-DLRip\The.Flash.S03E01.WEB-DLRip-IDEAFILM.avi
Формат                                   : AVI
Формат/Информация                        : Audio Video Interleave
Размер файла                             : 576 Мбайт
Продолжительность                        : 42 м. 33 с.
Общий поток                              : 1892 Кбит/сек
Программа кодирования                    : VirtualDubMod 1.5.10.2 (build 2540/release)
Библиотека кодирования                   : VirtualDubMod build 2540/release
Видео
Идентификатор                            : 0
Формат                                   : MPEG-4 Visual
Профиль формата                          : Advanced Simple@L5
Параметр BVOP формата                    : 2
Параметр QPel формата                    : Нет
Параметр GMC формата                     : Без точки перехода
Параметр матрицы формата                 : Default (MPEG)
Идентификатор кодека                     : XVID
Идентификатор кодека/Подсказка           : XviD
Продолжительность                        : 42 м. 33 с.
Битрейт                                  : 1499 Кбит/сек
Ширина                                   : 720 пикселей
Высота                                   : 400 пикселей
Соотношение сторон                       : 16:9
Частота кадров                           : 23,976 (24000/1001) кадра/сек
Цветовое пространство                    : YUV
Субдискретизация насыщенности            : 4:2:0
Битовая глубина                          : 8 бит
Тип развёртки                            : Прогрессивная
Метод сжатия                             : С потерями
Бит/(Пиксели*Кадры)                      : 0.217
Размер потока                            : 456 Мбайт (79%)
Библиотека кодирования                   : XviD 1.2.1 (UTC 2008-12-04)
Аудио
Идентификатор                            : 1
Формат                                   : AC-3
Формат/Информация                        : Audio Coding 3
Расширение режима                        : CM (complete main)
Параметр Endianness формата              : Big
Идентификатор кодека                     : 2000
Продолжительность                        : 42 м. 33 с.
Вид битрейта                             : Постоянный
Битрейт                                  : 384 Кбит/сек
Каналы                                   : 6 каналов
Расположение каналов                     : Front: L C R, Side: L R, LFE
Частота                                  : 48,0 КГц
Частота кадров                           : 31,250 кадров/сек (1536 spf)
Метод сжатия                             : С потерями
Размер потока                            : 117 Мбайт (20%)
Выравнивание                             : Разделение по промежуткам
Продолжительность промежутка             : 42  мс. (1,00 видеокадр)
Время предзагрузки промежутка            : 500  мс.

Скриншоты

pic pic pic pic