Скорпион / Scorpion (2016) WEB-DL [H.264/720p] (Сезон 3, 01-25 серии из 25) [IdeaFilm]

08-Окт-2016 15:57

Скорпион / Scorpion (2016) WEB-DL [H.264/720p] (Сезон 3, 01-25 серии из 25) [IdeaFilm]


picТелекомпания: CBS Television Studios
Жанр: драма, боевик, реальные события
Режиссер: Гэри Фледер
В ролях: Элиес Габел, Кэтрин МакФи, Эри Стидэм, Эдди Кэй Томас, Джейдин Вонг, Эмили Робинсон, Роберт Патрик, Рис Риос и др.
Описание:
Сюжет основан на реальных событиях. Это история об эксцентричном гении и его группе вундеркиндов. Они являются аналитическим центром, работающим на службу национальной безопасности, и их задача — разбираться со сложными угрозами современности.


Перевод: Профессиональный многоголосый - IDEAFILM
Продолжительность: ~ 00:42:30
Качество видео: WEB-DL 720p
Субтитры: Отсутствуют
Видео: MPEG-4 AVC, ~ 3600 Кбит/с, 1280x720
Аудио: Русский, английский (AC3, 6 ch, 384 Кбит/с)

Mediainfo:

Общее
Уникальный идентификатор                 : 237894497803380749014486926781662309817 (0xB2F8D04E25FB6276B357D55C72332DB9)
Полное имя                               : D:\IDEAFILM\Scorpion.S03.WEB-DL.720p\Scorpion.S03E0102.WEB-DL.720p-IDEAFILM.mkv
Формат                                   : Matroska
Версия формата                           : Version 4 / Version 2
Размер файла                             : 2,53 Гбайт
Продолжительность                        : 1 ч. 20 м.
Режим общего битрейта                    : Переменный
Общий поток                              : 4525 Кбит/сек
Дата кодирования                         : UTC 2016-10-08 11:55:45
Программа кодирования                    : mkvmerge v9.4.2 ('So High') 64bit
Библиотека кодирования                   : libebml v1.3.4 + libmatroska v1.4.5
Видео
Идентификатор                            : 1
Формат                                   : AVC
Формат/Информация                        : Advanced Video Codec
Профиль формата                          : Main@L3.2
Параметр CABAC формата                   : Да
Параметр ReFrames формата                : 3 кадра
Идентификатор кодека                     : V_MPEG4/ISO/AVC
Продолжительность                        : 1 ч. 20 м.
Вид битрейта                             : Переменный
Битрейт                                  : 3755 Кбит/сек
Максимальный битрейт                     : 4000 Кбит/сек
Ширина                                   : 1280 пикселей
Высота                                   : 720 пикселей
Соотношение сторон                       : 16:9
Режим частоты кадров                     : Постоянный
Частота кадров                           : 23,976 (24000/1001) кадра/сек
Стандарт вещания                         : NTSC
Цветовое пространство                    : YUV
Субдискретизация насыщенности            : 4:2:0
Битовая глубина                          : 8 бит
Тип развёртки                            : Прогрессивная
Бит/(Пиксели*Кадры)                      : 0.170
Размер потока                            : 2,10 Гбайт (83%)
Язык                                     : English
Default                                  : Да
Forced                                   : Нет
Цветовой диапазон                        : Limited
Аудио #1
Идентификатор                            : 2
Формат                                   : AC-3
Формат/Информация                        : Audio Coding 3
Расширение режима                        : CM (complete main)
Параметр Endianness формата              : Big
Идентификатор кодека                     : A_AC3
Продолжительность                        : 1 ч. 20 м.
Вид битрейта                             : Постоянный
Битрейт                                  : 384 Кбит/сек
Каналы                                   : 6 каналов
Расположение каналов                     : Front: L C R, Side: L R, LFE
Частота                                  : 48,0 КГц
Частота кадров                           : 31,250 кадров/сек (1536 spf)
Метод сжатия                             : С потерями
Размер потока                            : 220 Мбайт (8%)
Заголовок                                : IDEAFILM
Язык                                     : Russian
Default                                  : Да
Forced                                   : Нет
Аудио #2
Идентификатор                            : 3
Формат                                   : AC-3
Формат/Информация                        : Audio Coding 3
Расширение режима                        : CM (complete main)
Параметр Endianness формата              : Big
Идентификатор кодека                     : A_AC3
Продолжительность                        : 1 ч. 19 м.
Вид битрейта                             : Постоянный
Битрейт                                  : 384 Кбит/сек
Каналы                                   : 6 каналов
Расположение каналов                     : Front: L C R, Side: L R, LFE
Частота                                  : 48,0 КГц
Частота кадров                           : 31,250 кадров/сек (1536 spf)
Метод сжатия                             : С потерями
Задержка видео                           : 10 с. 0 мс.
Размер потока                            : 220 Мбайт (8%)
Язык                                     : English
Default                                  : Нет
Forced                                   : Нет

Скриншоты

pic pic pic pic
Последний раз редактировалось: spee2k (2017-05-18 23:53), всего редактировалось 21 раз(а)
08-Окт-2016 18:02
Нет скорости
08-Окт-2016 18:52
где раздача