Все схвачено / Man with a Plan (2016) HDTV [H.264/720p] (Сезон 1, серии 01-22 из 22) [IdeaFilm]

25-Окт-2016 15:27

Все схвачено / Man with a Plan (2016) HDTV [H.264/720p] (Сезон 1, серии 01-22 из 22) [IdeaFilm]


picТелекомпания: Michael Patrick King Productions, Warner Bros. Television
Жанр: Комедия
Режиссер: Джеймс Берроуз
В ролях: Мэтт ЛеБлан, Лиза Снайдер, Джессика Чаффин, Дженна Фишер, Грэйс Кауфман
Описание:
Всю жизнь проведя в разъездах и рабочих командировках, Адам Бёрнс должен принять новый жизненный расклад, когда его супруга Мари, устав быть домохозяйкой и воспитательницей троих детей, возвращается на работу. Теперь Адам займёт её место. Он думает, что у него Всё схвачено и не будет проблем, однако уже в первый день новой жизни герой понимает, что трое детей – это сущий кошмар, что он ничегошеньки не знает о воспитании и что его малютки далеко не так просты и невинны, как казалось ему буквально вчера.


1xbet - Высокие коэффициенты. Большие выигрыши
http://bit.ly/2lyIZwl
Перевод: Профессиональный многоголосый - IDEAFILM
Продолжительность: ~ 00:30:00
Качество видео: HDTV 720p
Субтитры: Отсутствуют
Видео: MPEG-4 AVC, ~ 3400 Кбит/с, 1280x720
Аудио: Русский, английский (AC3, 6 ch, 384 Кбит/с)

Mediainfo:

Общее
Уникальный идентификатор                 : 202450261477434991137060851716174949626 (0x984E808880494C2BA4AC1DCC1A78ACFA)
Полное имя                               : D:\IDEAFILM\Man.with.a.Plan.S01.HDTV.720p\Man.with.a.Plan.S01.HDTV.720p-IDEAFILM.mkv
Формат                                   : Matroska
Версия формата                           : Version 4 / Version 2
Размер файла                             : 640 Мбайт
Продолжительность                        : 21 м. 55 с.
Режим общего битрейта                    : Переменный
Общий поток                              : 4084 Кбит/сек
Дата кодирования                         : UTC 2016-10-25 11:56:58
Программа кодирования                    : mkvmerge v9.5.0 ('Quiet Fire') 64bit
Библиотека кодирования                   : libebml v1.3.4 + libmatroska v1.4.5
Видео
Идентификатор                            : 1
Формат                                   : AVC
Формат/Информация                        : Advanced Video Codec
Профиль формата                          : Main@L3.2
Параметр CABAC формата                   : Да
Параметр ReFrames формата                : 3 кадра
Идентификатор кодека                     : V_MPEG4/ISO/AVC
Продолжительность                        : 21 м. 54 с.
Вид битрейта                             : Переменный
Битрейт                                  : 3324 Кбит/сек
Максимальный битрейт                     : 3400 Кбит/сек
Ширина                                   : 1280 пикселей
Высота                                   : 720 пикселей
Соотношение сторон                       : 16:9
Режим частоты кадров                     : Постоянный
Частота кадров                           : 23,976 (23976/1000) кадра/сек
Частота кадров в оригинале               : 23,976 (24000/1001) кадра/сек
Стандарт вещания                         : NTSC
Цветовое пространство                    : YUV
Субдискретизация насыщенности            : 4:2:0
Битовая глубина                          : 8 бит
Тип развёртки                            : Прогрессивная
Бит/(Пиксели*Кадры)                      : 0.150
Размер потока                            : 521 Мбайт (81%)
Язык                                     : English
Default                                  : Да
Forced                                   : Нет
Цветовой диапазон                        : Limited
Аудио #1
Идентификатор                            : 2
Формат                                   : AC-3
Формат/Информация                        : Audio Coding 3
Расширение режима                        : CM (complete main)
Параметр Endianness формата              : Big
Идентификатор кодека                     : A_AC3
Продолжительность                        : 21 м. 55 с.
Вид битрейта                             : Постоянный
Битрейт                                  : 384 Кбит/сек
Каналы                                   : 6 каналов
Расположение каналов                     : Front: L C R, Side: L R, LFE
Частота                                  : 48,0 КГц
Частота кадров                           : 31,250 кадров/сек (1536 spf)
Метод сжатия                             : С потерями
Размер потока                            : 60,2 Мбайт (9%)
Заголовок                                : IDEAFILM
Язык                                     : Russian
Default                                  : Да
Forced                                   : Нет
Аудио #2
Идентификатор                            : 3
Формат                                   : AC-3
Формат/Информация                        : Audio Coding 3
Расширение режима                        : CM (complete main)
Параметр Endianness формата              : Big
Идентификатор кодека                     : A_AC3
Продолжительность                        : 21 м. 21 с.
Вид битрейта                             : Постоянный
Битрейт                                  : 384 Кбит/сек
Каналы                                   : 6 каналов
Расположение каналов                     : Front: L C R, Side: L R, LFE
Частота                                  : 48,0 КГц
Частота кадров                           : 31,250 кадров/сек (1536 spf)
Метод сжатия                             : С потерями
Задержка видео                           : 34 с. 0 мс.
Размер потока                            : 58,6 Мбайт (9%)
Язык                                     : English
Default                                  : Нет
Forced                                   : Нет

Скриншоты

pic pic pic pic