Изумрудный город / Emerald City (2017) HDTV [H.264/720p] (Сезон 1, серии 01-10 из 10) [IdeaFilm]

07-Янв-2017 11:49

Изумрудный город / Emerald City (2017) HDTV [H.264/720p] (Сезон 1, серии 01-10 из 10) [IdeaFilm]


picТелекомпания: NBC Universal Television
Жанр: фэнтези
Режиссер: Тарсем Сингх
В ролях: Герран Хауэлл, Адриа Архона, Винсент Д`Онофрио, Оливер Джексон-Коэн, Изабель Лукас, Стефани Мартини, Ана Улару, Рокси Штернберг, Ребека Ри, Оулавюр Дарри Оулафссон
Описание:
В мгновение ока, торнадо уносит 20-летнюю Дороти Гейл и её полицейскую собаку в мир, далекий от нашего — мистическую землю, охваченную кровавой войной между конкурирующими королевствами, в страну Оз. Дороти попадает в этот опасный мир и раскрывает свою истинную судьбу..


1xbet - Высокие коэффициенты. Большие выигрыши
http://bit.ly/2lyIZwl
Перевод: Профессиональный многоголосый - IDEAFILM
Продолжительность: ~ 00:50:00
Качество видео: HDTV 720p
Субтитры: Отсутствуют
Видео: MPEG-4 AVC, ~ 3300 Кбит/с, 1280x720
Аудио: Русский, английский (AC3, 6 ch, 384 Кбит/с)

Mediainfo:

Общее
Уникальный идентификатор                 : 242947939402996878556100502620351059878 (0xB6C61236626ACE82A4C752EC52F557A6)
Полное имя                               : E:\IDEAFILM\Emelard.City.S01.HDTV.720p\Emelard.City.S01E0102.HDTV.720p-IDEAFILM.mkv
Формат                                   : Matroska
Версия формата                           : Version 4 / Version 2
Размер файла                             : 2,16 Гбайт
Продолжительность                        : 1 ч. 19 м.
Режим общего битрейта                    : Переменный
Общий поток                              : 3867 Кбит/сек
Дата кодирования                         : UTC 2017-01-07 08:36:19
Программа кодирования                    : mkvmerge v9.7.1 ('Pandemonium') 64bit
Библиотека кодирования                   : libebml v1.3.4 + libmatroska v1.4.5
Видео
Идентификатор                            : 1
Формат                                   : AVC
Формат/Информация                        : Advanced Video Codec
Профиль формата                          : Main@L3.2
Параметр CABAC формата                   : Да
Параметр ReFrames формата                : 3 кадра
Идентификатор кодека                     : V_MPEG4/ISO/AVC
Продолжительность                        : 1 ч. 19 м.
Вид битрейта                             : Переменный
Битрейт                                  : 3100 Кбит/сек
Максимальный битрейт                     : 3200 Кбит/сек
Ширина                                   : 1280 пикселей
Высота                                   : 720 пикселей
Соотношение сторон                       : 16:9
Режим частоты кадров                     : Постоянный
Частота кадров                           : 23,976 (24000/1001) кадра/сек
Стандарт вещания                         : NTSC
Цветовое пространство                    : YUV
Субдискретизация насыщенности            : 4:2:0
Битовая глубина                          : 8 бит
Тип развёртки                            : Прогрессивная
Бит/(Пиксели*Кадры)                      : 0.140
Размер потока                            : 1,73 Гбайт (80%)
Язык                                     : English
Default                                  : Да
Forced                                   : Нет
Цветовой диапазон                        : Limited
Аудио #1
Идентификатор                            : 2
Формат                                   : AC-3
Формат/Информация                        : Audio Coding 3
Расширение режима                        : CM (complete main)
Параметр Endianness формата              : Big
Идентификатор кодека                     : A_AC3
Продолжительность                        : 1 ч. 19 м.
Вид битрейта                             : Постоянный
Битрейт                                  : 384 Кбит/сек
Каналы                                   : 6 каналов
Расположение каналов                     : Front: L C R, Side: L R, LFE
Частота                                  : 48,0 КГц
Частота кадров                           : 31,250 кадров/сек (1536 spf)
Метод сжатия                             : С потерями
Размер потока                            : 219 Мбайт (10%)
Заголовок                                : IDEAFILM
Язык                                     : Russian
Default                                  : Да
Forced                                   : Нет
Аудио #2
Идентификатор                            : 3
Формат                                   : AC-3
Формат/Информация                        : Audio Coding 3
Расширение режима                        : CM (complete main)
Параметр Endianness формата              : Big
Идентификатор кодека                     : A_AC3
Продолжительность                        : 1 ч. 19 м.
Вид битрейта                             : Постоянный
Битрейт                                  : 384 Кбит/сек
Каналы                                   : 6 каналов
Расположение каналов                     : Front: L C R, Side: L R, LFE
Частота                                  : 48,0 КГц
Частота кадров                           : 31,250 кадров/сек (1536 spf)
Метод сжатия                             : С потерями
Задержка видео                           : 33 с. 0 мс.
Размер потока                            : 218 Мбайт (10%)
Язык                                     : English
Default                                  : Нет
Forced                                   : Нет

Скриншоты

pic pic pic pic
Последний раз редактировалось: spee2k (2017-03-04 14:03), всего редактировалось 7 раз(а)
21-Янв-2017 18:12
спасибо за релиз
21-Янв-2017 18:24
заработало спс
28-Янв-2017 19:48
Первый сериал который смотрю в озвучке ideafilm. Впечатления: качественная озвучка и перевод.
25-Ноя-2017 15:38
Пожалуйста посидируйте!