Гений / Genius (2017) WEB-DL [H.264/1080p] (Сезон 1, серии 01-10 из 10) [IdeaFilm]

29-Апр-2017 13:13

Гений / Genius (2017) WEB-DL [H.264/1080p] (Сезон 1, серии 01-10 из 10) [IdeaFilm]


picТелекомпания: Fox 21 Television Studios
Жанр: Детектив
Режиссер: Джеймс Хоуз, Минки Спиро, Рон Ховард
В ролях: Джеффри Раш, Джонни Флинн, Николас Роу, Саманта Колли, Джон Флетчер, Алисия фон Риттберг, Сильвия Бухбайер, Т.Р. Найт, Люси Расселл
Описание:
Сериал о том, как Эйнштейн в молодости не мог получить работу преподавателя, и как он пришёл к теории относительности.


Перевод: Профессиональный многоголосый - IDEAFILM
Продолжительность: ~ 00:50:00
Качество видео: WEB-DL 1080p
Субтитры: Отсутствуют
Видео: MPEG-4 AVC, ~ 5000 Кбит/с, 1280x960
Аудио: Русский, английский (AC3, 6 ch, 384 Кбит/с)

Mediainfo:

Общее
Уникальный идентификатор                 : 198116779188639362736662607109519367473 (0x950BE75C52D3A21D8EA8FC8DD94CDD31)
Полное имя                               : G:\IDEAFILM\Genius.S01.WEB-DL.1080p\Genius.S01E01.WEB-DL.1080p-IDEAFILM.mkv
Формат                                   : Matroska
Версия формата                           : Version 4 / Version 2
Размер файла                             : 2,70 Гбайт
Продолжительность                        : 1 ч. 5 м.
Общий поток                              : 5920 Кбит/сек
Дата кодирования                         : UTC 2017-04-29 09:49:08
Программа кодирования                    : mkvmerge v9.7.1 ('Pandemonium') 64bit
Библиотека кодирования                   : libebml v1.3.4 + libmatroska v1.4.5
Видео
Идентификатор                            : 1
Формат                                   : AVC
Формат/Информация                        : Advanced Video Codec
Профиль формата                          : Main@L4.1
Параметр CABAC формата                   : Да
Параметр ReFrames формата                : 3 кадра
Идентификатор кодека                     : V_MPEG4/ISO/AVC
Продолжительность                        : 1 ч. 5 м.
Битрейт                                  : 5153 Кбит/сек
Ширина                                   : 1920 пикселей
Высота                                   : 960 пикселей
Соотношение сторон                       : 2,000
Режим частоты кадров                     : Постоянный
Частота кадров                           : 23,976 (24000/1001) кадра/сек
Стандарт вещания                         : NTSC
Цветовое пространство                    : YUV
Субдискретизация насыщенности            : 4:2:0
Битовая глубина                          : 8 бит
Тип развёртки                            : Прогрессивная
Бит/(Пиксели*Кадры)                      : 0.117
Размер потока                            : 2,35 Гбайт (87%)
Язык                                     : English
Default                                  : Да
Forced                                   : Нет
Цветовой диапазон                        : Limited
Основные цвета                           : BT.709
Характеристики трансфера                 : BT.709
Коэффициенты матрицы                     : BT.709
Аудио #1
Идентификатор                            : 2
Формат                                   : AC-3
Формат/Информация                        : Audio Coding 3
Расширение режима                        : CM (complete main)
Параметр Endianness формата              : Big
Идентификатор кодека                     : A_AC3
Продолжительность                        : 1 ч. 5 м.
Вид битрейта                             : Постоянный
Битрейт                                  : 384 Кбит/сек
Каналы                                   : 6 каналов
Расположение каналов                     : Front: L C R, Side: L R, LFE
Частота                                  : 48,0 КГц
Частота кадров                           : 31,250 кадров/сек (1536 spf)
Метод сжатия                             : С потерями
Размер потока                            : 180 Мбайт (6%)
Заголовок                                : IDEAFILM
Язык                                     : Russian
Default                                  : Да
Forced                                   : Нет
Аудио #2
Идентификатор                            : 3
Формат                                   : AC-3
Формат/Информация                        : Audio Coding 3
Расширение режима                        : CM (complete main)
Параметр Endianness формата              : Big
Идентификатор кодека                     : A_AC3
Продолжительность                        : 1 ч. 4 м.
Вид битрейта                             : Постоянный
Битрейт                                  : 384 Кбит/сек
Каналы                                   : 6 каналов
Расположение каналов                     : Front: L C R, Side: L R, LFE
Частота                                  : 48,0 КГц
Частота кадров                           : 31,250 кадров/сек (1536 spf)
Метод сжатия                             : С потерями
Задержка видео                           : 33 с. 0 мс.
Размер потока                            : 178 Мбайт (6%)
Язык                                     : English
Default                                  : Нет
Forced                                   : Нет

Скриншоты

pic pic pic pic