Американская история ужасов (Культ) / American Horror Story. Cult (2017) WEBRip [H.264/1080p] (Сезон 7, серии 01-07 из 11) [IdeaFilm]

06-Сен-2017 18:53

Американская история ужасов (Культ) / American Horror Story. Cult (2017) WEBRip [H.264/720p] (Сезон 7, серии 01-07 из 11) [IdeaFilm]


picТелекомпания: Brad Falchuk Teley-Vision, Ryan Murphy Productions, 20th Century Fox Television
Жанр: Ужасы, фэнтези, триллер, драма
Режиссер: Брэдли Букер, Майкл Аппендаль, Альфонсо Гомез-Рейон, Майкл Леманн
В ролях: Леди Гага, Эван Питерс, Джессика Лэнг, Лили Рэйб, Фрэнсис Конрой, Сара Полсон, Таисса Фармига, Дэнис О`Харе, Закари Куинто, Дилан МакДермотт, и другие
Описание:
Сюжет нового седьмого сезона сериала, вышедший под названием «Культ», начинается с показа отрывков из президентской кампании Дональда Трампа и Хиллари Клинтон. Герои серии с ужасом наблюдают за тем, как Дональд Трамп объявлен президентом Соединенных Штатов.


1xbet - Высокие коэффициенты. Большие выигрыши
http://bit.ly/2lyIZwl
Перевод: Профессиональный многоголосый - IDEAFILM
Продолжительность: ~ 00:50:00
Качество: WEBRip (1080p)
Субтитры: Отсутствуют
Видео: MPEG-4 AVC, ~ 8400 Кбит/с, 1916x1076
Аудио: Русский, английский (AC3, 6 ch, 384 Кбит/с)

Mediainfo:

Общее
Уникальный идентификатор                 : 195062701767357422481524760810350083852 (0x92BFB5B7DB5B444A9DA5BCD1989A7F0C)
Полное имя                               : G:\IDEAFILM\American.Horror.Story.S07.WEBRip.1080p\American.Horror.Story.S07E01.WEBRip.1080p-IDEAFILM.mkv
Формат                                   : Matroska
Версия формата                           : Version 4 / Version 2
Размер файла                             : 3,16 Гбайт
Продолжительность                        : 49 м. 9 с.
Общий поток                              : 9187 Кбит/сек
Дата кодирования                         : UTC 2017-09-06 15:46:10
Программа кодирования                    : mkvmerge v12.0.0 ('Trust / Lust') 64bit
Библиотека кодирования                   : libebml v1.3.4 + libmatroska v1.4.5
Видео
Идентификатор                            : 1
Формат                                   : AVC
Формат/Информация                        : Advanced Video Codec
Профиль формата                          : Main@L4.1
Параметр CABAC формата                   : Да
Параметр ReFrames формата                : 3 кадра
Идентификатор кодека                     : V_MPEG4/ISO/AVC
Продолжительность                        : 49 м. 9 с.
Битрейт                                  : 8421 Кбит/сек
Ширина                                   : 1916 пикселей
Высота                                   : 1076 пикселей
Соотношение сторон                       : 16:9
Режим частоты кадров                     : Постоянный
Частота кадров                           : 23,976 (24000/1001) кадра/сек
Стандарт вещания                         : NTSC
Цветовое пространство                    : YUV
Субдискретизация насыщенности            : 4:2:0
Битовая глубина                          : 8 бит
Тип развёртки                            : Прогрессивная
Бит/(Пиксели*Кадры)                      : 0.170
Размер потока                            : 2,89 Гбайт (92%)
Язык                                     : English
Default                                  : Да
Forced                                   : Нет
Цветовой диапазон                        : Limited
Основные цвета                           : BT.709
Характеристики трансфера                 : BT.709
Коэффициенты матрицы                     : BT.709
Аудио #1
Идентификатор                            : 2
Формат                                   : AC-3
Формат/Информация                        : Audio Coding 3
Расширение режима                        : CM (complete main)
Параметр Endianness формата              : Big
Идентификатор кодека                     : A_AC3
Продолжительность                        : 49 м. 9 с.
Вид битрейта                             : Постоянный
Битрейт                                  : 384 Кбит/сек
Каналы                                   : 6 каналов
Расположение каналов                     : Front: L C R, Side: L R, LFE
Частота                                  : 48,0 КГц
Частота кадров                           : 31,250 кадров/сек (1536 spf)
Метод сжатия                             : С потерями
Размер потока                            : 135 Мбайт (4%)
Заголовок                                : IDEAFILM
Язык                                     : Russian
Default                                  : Да
Forced                                   : Нет
Аудио #2
Идентификатор                            : 3
Формат                                   : AC-3
Формат/Информация                        : Audio Coding 3
Расширение режима                        : CM (complete main)
Параметр Endianness формата              : Big
Идентификатор кодека                     : A_AC3
Продолжительность                        : 48 м. 36 с.
Вид битрейта                             : Постоянный
Битрейт                                  : 384 Кбит/сек
Каналы                                   : 6 каналов
Расположение каналов                     : Front: L C R, Side: L R, LFE
Частота                                  : 48,0 КГц
Частота кадров                           : 31,250 кадров/сек (1536 spf)
Метод сжатия                             : С потерями
Задержка видео                           : 33 с. 0 мс.
Размер потока                            : 134 Мбайт (4%)
Язык                                     : English
Default                                  : Нет
Forced                                   : Нет

Скриншоты

pic pic pic pic