Булл (Бык) / Bull (2017) WEBRip [XviD/400p] (Сезон 2, серии 01-09 из 23) [IdeaFilm]

28-Сен-2017 16:01

Булл (Бык) / Bull (2017) WEBRip [XviD/400p] (Сезон 2, серии 01-09 из 23) [IdeaFilm]


picТелекомпания: John Stanley Productions
Жанр: Комедия
Режиссер: Саймон Гибни
В ролях:Майкл Уэтерли, Фредди Родригес, Женева Карр, Джейми Ли Киршнер, Аннабель Аттанасио, Крис Джексон, Тереза Тинг, Джимми Саито
Описание:
Гениальный доктор помогает раскрывать судебные дела с помощью психологии интуиции и высоких технологий


Перевод: Профессиональный многоголосый - IDEAFILM
Продолжительность: ~ 00:50:00
Качество видео: WEBRip
Субтитры: Отсутствуют
Видео: 720x400 (1.80:1), 23.976 fps, XviD build 50 ~1500 kbps avg, 0.23 bit/pixel
Аудио: 48 kHz, AC3 Dolby Digital, 3/2 (L,C,R,l,r) + LFE ch, ~384 kbps

Mediainfo:

Общее
Полное имя                               : F:\IDEAFILM\Bull.2017.S02.WEBRip\Bull.2017.S02E01.WEBRip-IDEAFILM.avi
Формат                                   : AVI
Формат/Информация                        : Audio Video Interleave
Размер файла                             : 594 Мбайт
Продолжительность                        : 43 м. 52 с.
Общий поток                              : 1891 Кбит/сек
Программа кодирования                    : VirtualDubMod 1.5.10.2 (build 2540/release)
Библиотека кодирования                   : VirtualDubMod build 2540/release
Видео
Идентификатор                            : 0
Формат                                   : MPEG-4 Visual
Профиль формата                          : Advanced Simple@L5
Параметр BVOP формата                    : 2
Параметр QPel формата                    : Нет
Параметр GMC формата                     : Без точки перехода
Параметр матрицы формата                 : Default (MPEG)
Идентификатор кодека                     : XVID
Идентификатор кодека/Подсказка           : XviD
Продолжительность                        : 43 м. 52 с.
Битрейт                                  : 1498 Кбит/сек
Ширина                                   : 720 пикселей
Высота                                   : 400 пикселей
Соотношение сторон                       : 16:9
Частота кадров                           : 23,976 (24000/1001) кадра/сек
Цветовое пространство                    : YUV
Субдискретизация насыщенности            : 4:2:0
Битовая глубина                          : 8 бит
Тип развёртки                            : Прогрессивная
Метод сжатия                             : С потерями
Бит/(Пиксели*Кадры)                      : 0.217
Размер потока                            : 470 Мбайт (79%)
Библиотека кодирования                   : XviD 1.2.1 (UTC 2008-12-04)
Аудио
Идентификатор                            : 1
Формат                                   : AC-3
Формат/Информация                        : Audio Coding 3
Расширение режима                        : CM (complete main)
Параметр Endianness формата              : Big
Идентификатор кодека                     : 2000
Продолжительность                        : 43 м. 52 с.
Вид битрейта                             : Постоянный
Битрейт                                  : 384 Кбит/сек
Каналы                                   : 6 каналов
Расположение каналов                     : Front: L C R, Side: L R, LFE
Частота                                  : 48,0 КГц
Частота кадров                           : 31,250 кадров/сек (1536 spf)
Метод сжатия                             : С потерями
Размер потока                            : 121 Мбайт (20%)
Выравнивание                             : Разделение по промежуткам
Продолжительность промежутка             : 42  мс. (1,00 видеокадр)
Время предзагрузки промежутка            : 500  мс.

Скриншоты

pic pic pic pic