Булл (Бык) / Bull (2017) WEBRip [H.264/720p] (Сезон 2, серии 01-09 из 23) [IdeaFilm]

28-Сен-2017 16:02

Булл (Бык) / Bull (2017) WEBRip [H.264/720p] (Сезон 2, серии 01-09 из 23) [IdeaFilm]


picТелекомпания: John Stanley Productions
Жанр: Комедия
Режиссер: Саймон Гибни
В ролях:Майкл Уэтерли, Фредди Родригес, Женева Карр, Джейми Ли Киршнер, Аннабель Аттанасио, Крис Джексон, Тереза Тинг, Джимми Саито
Описание:
Гениальный доктор помогает раскрывать судебные дела с помощью психологии интуиции и высоких технологий


Перевод: Профессиональный многоголосый - IDEAFILM
Продолжительность: ~ 00:50:00
Качество видео: WEBRip 720p
Субтитры: Отсутствуют
Видео: MPEG-4 AVC, ~ 4500 Кбит/с, 1280x720
Аудио: Русский, английский (AC3, 6 ch, 384 Кбит/с)

Mediainfo:

Общее
Уникальный идентификатор                 : 192479004371859286993893945751181321241 (0x90CE1B99FF4774F3A6C495D61845E419)
Полное имя                               : F:\IDEAFILM\Bull.2017.S02.WEBRip.720p\Bull.2017.S02E01.WEBRip.720p-IDEAFILM.mkv
Формат                                   : Matroska
Версия формата                           : Version 4 / Version 2
Размер файла                             : 1,60 Гбайт
Продолжительность                        : 43 м. 53 с.
Общий поток                              : 5205 Кбит/сек
Дата кодирования                         : UTC 2017-09-28 12:38:38
Программа кодирования                    : mkvmerge v12.0.0 ('Trust / Lust') 64bit
Библиотека кодирования                   : libebml v1.3.4 + libmatroska v1.4.5
Видео
Идентификатор                            : 1
Формат                                   : AVC
Формат/Информация                        : Advanced Video Codec
Профиль формата                          : Main@L4.1
Параметр CABAC формата                   : Да
Параметр ReFrames формата                : 3 кадра
Идентификатор кодека                     : V_MPEG4/ISO/AVC
Продолжительность                        : 43 м. 52 с.
Битрейт                                  : 4437 Кбит/сек
Ширина                                   : 1280 пикселей
Высота                                   : 720 пикселей
Соотношение сторон                       : 16:9
Режим частоты кадров                     : Постоянный
Частота кадров                           : 23,976 (24000/1001) кадра/сек
Стандарт вещания                         : NTSC
Цветовое пространство                    : YUV
Субдискретизация насыщенности            : 4:2:0
Битовая глубина                          : 8 бит
Тип развёртки                            : Прогрессивная
Бит/(Пиксели*Кадры)                      : 0.201
Размер потока                            : 1,36 Гбайт (85%)
Язык                                     : English
Default                                  : Да
Forced                                   : Нет
Цветовой диапазон                        : Limited
Основные цвета                           : BT.709
Характеристики трансфера                 : BT.709
Коэффициенты матрицы                     : BT.709
Аудио #1
Идентификатор                            : 2
Формат                                   : AC-3
Формат/Информация                        : Audio Coding 3
Расширение режима                        : CM (complete main)
Параметр Endianness формата              : Big
Идентификатор кодека                     : A_AC3
Продолжительность                        : 43 м. 53 с.
Вид битрейта                             : Постоянный
Битрейт                                  : 384 Кбит/сек
Каналы                                   : 6 каналов
Расположение каналов                     : Front: L C R, Side: L R, LFE
Частота                                  : 48,0 КГц
Частота кадров                           : 31,250 кадров/сек (1536 spf)
Метод сжатия                             : С потерями
Размер потока                            : 121 Мбайт (7%)
Заголовок                                : IDEAFilam
Язык                                     : Russian
Default                                  : Да
Forced                                   : Нет
Аудио #2
Идентификатор                            : 3
Формат                                   : AC-3
Формат/Информация                        : Audio Coding 3
Расширение режима                        : CM (complete main)
Параметр Endianness формата              : Big
Идентификатор кодека                     : A_AC3
Продолжительность                        : 43 м. 44 с.
Вид битрейта                             : Постоянный
Битрейт                                  : 384 Кбит/сек
Каналы                                   : 6 каналов
Расположение каналов                     : Front: L C R, Side: L R, LFE
Частота                                  : 48,0 КГц
Частота кадров                           : 31,250 кадров/сек (1536 spf)
Метод сжатия                             : С потерями
Задержка видео                           : 9 с. 0 мс.
Размер потока                            : 120 Мбайт (7%)
Язык                                     : English
Default                                  : Нет
Forced                                   : Нет

Скриншоты

pic pic pic pic