Морская полиция: Спецотдел / NCIS: Naval Criminal Investigative Service (2017) WEBRip [xvid/400p] (Сезон 15, серии 01-09 из 24) [IdeaFilm]

28-Сен-2017 19:07

Морская полиция: Спецотдел / NCIS (2017) WEBRip [xvid/400p] (Сезон 15, серии 01-09 из 24) [IdeaFilm]


picТелекомпания: CBS, Paramount Network Television Productions
Жанр: драма
Режиссер: Дональд П. Беллисарио, Дон МакГилл
В ролях: Виола Дэвис, Марк Хэрмон, Майкл Уэтерли, Поли Перретт, Дэвид МакКаллум, Шон Мюррэй, Брайан Дитцен, Джо Спано, Эмили Викершем
Описание:
Остросюжетный сериал о приключениях команды профессиональных спецагентов. Их миссия - расследовать преступления, которые каким-то образом связаны со служащими морской пехоты. Отдел расследований возглавляет суперагент Гиббс.


Перевод: Профессиональный многоголосый - IDEAFILM
Продолжительность: ~ 00:42:30
Качество видео: WEBRip
Субтитры: Отсутствуют
Видео: xvid, 720x400 (16:9), 23.976 fps, 1 500 Kbps (0.143 bit/pixel)
Аудио: AC-3, 48.0 KHz, 6 ch, 384 Kbps, CBR (Russian)

Mediainfo:

Общее
Полное имя                               : F:\IDEAFILM\NCIS.S15.WEBRip\NCIS.S15E01.WEBRip-IDEAFILM.avi
Формат                                   : AVI
Формат/Информация                        : Audio Video Interleave
Размер файла                             : 588 Мбайт
Продолжительность                        : 43 м. 24 с.
Общий поток                              : 1892 Кбит/сек
Программа кодирования                    : VirtualDubMod 1.5.10.2 (build 2540/release)
Библиотека кодирования                   : VirtualDubMod build 2540/release
Видео
Идентификатор                            : 0
Формат                                   : MPEG-4 Visual
Профиль формата                          : Advanced Simple@L5
Параметр BVOP формата                    : 2
Параметр QPel формата                    : Нет
Параметр GMC формата                     : Без точки перехода
Параметр матрицы формата                 : Default (MPEG)
Идентификатор кодека                     : XVID
Идентификатор кодека/Подсказка           : XviD
Продолжительность                        : 43 м. 24 с.
Битрейт                                  : 1499 Кбит/сек
Ширина                                   : 720 пикселей
Высота                                   : 400 пикселей
Соотношение сторон                       : 16:9
Частота кадров                           : 23,976 (24000/1001) кадра/сек
Цветовое пространство                    : YUV
Субдискретизация насыщенности            : 4:2:0
Битовая глубина                          : 8 бит
Тип развёртки                            : Прогрессивная
Метод сжатия                             : С потерями
Бит/(Пиксели*Кадры)                      : 0.217
Размер потока                            : 465 Мбайт (79%)
Библиотека кодирования                   : XviD 1.2.1 (UTC 2008-12-04)
Аудио
Идентификатор                            : 1
Формат                                   : AC-3
Формат/Информация                        : Audio Coding 3
Расширение режима                        : CM (complete main)
Параметр Endianness формата              : Big
Идентификатор кодека                     : 2000
Продолжительность                        : 43 м. 24 с.
Вид битрейта                             : Постоянный
Битрейт                                  : 384 Кбит/сек
Каналы                                   : 6 каналов
Расположение каналов                     : Front: L C R, Side: L R, LFE
Частота                                  : 48,0 КГц
Частота кадров                           : 31,250 кадров/сек (1536 spf)
Метод сжатия                             : С потерями
Размер потока                            : 119 Мбайт (20%)
Выравнивание                             : Разделение по промежуткам
Продолжительность промежутка             : 42  мс. (1,00 видеокадр)
Время предзагрузки промежутка            : 500  мс.

Скриншоты

pic pic pic pic
Последний раз редактировалось: spee2k (2017-11-24 00:27), всего редактировалось 4 раз(а)
31-Окт-2017 12:27
Спасибо труды!!!