Морская полиция: Спецотдел / NCIS: Naval Criminal Investigative Service (2017) WEBRip [H.264/1080p] (Сезон 15, серии 01-09 из 24) [IdeaFilm]

28-Сен-2017 19:10

Морская полиция: Спецотдел / NCIS (2017) WEBRip [H.264/1080p] (Сезон 15, серии 01-09 из 24) [IdeaFilm]


picТелекомпания: CBS, Paramount Network Television Productions
Жанр: драма
Режиссер: Дональд П. Беллисарио, Дон МакГилл
В ролях: Виола Дэвис, Марк Хэрмон, Майкл Уэтерли, Поли Перретт, Дэвид МакКаллум, Шон Мюррэй, Брайан Дитцен, Джо Спано, Эмили Викершем
Описание:
Остросюжетный сериал о приключениях команды профессиональных спецагентов. Их миссия - расследовать преступления, которые каким-то образом связаны со служащими морской пехоты. Отдел расследований возглавляет суперагент Гиббс.


Перевод: Профессиональный многоголосый - IDEAFILM
Продолжительность: ~ 00:42:30
Качество видео: WEBRip 1080p
Субтитры: Отсутствуют
Видео: MPEG-4 AVC, ~ 7800 Кбит/с, 1920x1080
Аудио: Русский, английский (AC3, 6 ch, 384 Кбит/с)

Mediainfo:

Общее
Уникальный идентификатор                 : 239316046542526121510864734034708753346 (0xB40A9811C04FA353B7A0750714D96BC2)
Полное имя                               : F:\IDEAFILM\NCIS.S15.WEBRip.1080p\NCIS.S15E01.WEBRip.1080p-IDEAFILM.mkv
Формат                                   : Matroska
Версия формата                           : Version 4 / Version 2
Размер файла                             : 2,62 Гбайт
Продолжительность                        : 43 м. 24 с.
Общий поток                              : 8628 Кбит/сек
Дата кодирования                         : UTC 2017-09-28 15:25:30
Программа кодирования                    : mkvmerge v12.0.0 ('Trust / Lust') 64bit
Библиотека кодирования                   : libebml v1.3.4 + libmatroska v1.4.5
Видео
Идентификатор                            : 1
Формат                                   : AVC
Формат/Информация                        : Advanced Video Codec
Профиль формата                          : Main@L4.1
Параметр CABAC формата                   : Да
Параметр ReFrames формата                : 3 кадра
Идентификатор кодека                     : V_MPEG4/ISO/AVC
Продолжительность                        : 43 м. 24 с.
Битрейт                                  : 7864 Кбит/сек
Ширина                                   : 1920 пикселей
Высота                                   : 1080 пикселей
Соотношение сторон                       : 16:9
Режим частоты кадров                     : Постоянный
Частота кадров                           : 23,976 (24000/1001) кадра/сек
Стандарт вещания                         : NTSC
Цветовое пространство                    : YUV
Субдискретизация насыщенности            : 4:2:0
Битовая глубина                          : 8 бит
Тип развёртки                            : Прогрессивная
Бит/(Пиксели*Кадры)                      : 0.158
Размер потока                            : 2,38 Гбайт (91%)
Язык                                     : English
Default                                  : Да
Forced                                   : Нет
Цветовой диапазон                        : Limited
Основные цвета                           : BT.709
Характеристики трансфера                 : BT.709
Коэффициенты матрицы                     : BT.709
Аудио #1
Идентификатор                            : 2
Формат                                   : AC-3
Формат/Информация                        : Audio Coding 3
Расширение режима                        : CM (complete main)
Параметр Endianness формата              : Big
Идентификатор кодека                     : A_AC3
Продолжительность                        : 43 м. 24 с.
Вид битрейта                             : Постоянный
Битрейт                                  : 384 Кбит/сек
Каналы                                   : 6 каналов
Расположение каналов                     : Front: L C R, Side: L R, LFE
Частота                                  : 48,0 КГц
Частота кадров                           : 31,250 кадров/сек (1536 spf)
Метод сжатия                             : С потерями
Размер потока                            : 119 Мбайт (4%)
Заголовок                                : IDEAFILM
Язык                                     : Russian
Default                                  : Да
Forced                                   : Нет
Аудио #2
Идентификатор                            : 3
Формат                                   : AC-3
Формат/Информация                        : Audio Coding 3
Расширение режима                        : CM (complete main)
Параметр Endianness формата              : Big
Идентификатор кодека                     : A_AC3
Продолжительность                        : 42 м. 44 с.
Вид битрейта                             : Постоянный
Битрейт                                  : 384 Кбит/сек
Каналы                                   : 6 каналов
Расположение каналов                     : Front: L C R, Side: L R, LFE
Частота                                  : 48,0 КГц
Частота кадров                           : 31,250 кадров/сек (1536 spf)
Метод сжатия                             : С потерями
Задержка видео                           : 40 с. 0 мс.
Размер потока                            : 117 Мбайт (4%)
Язык                                     : English
Default                                  : Нет
Forced                                   : Нет

Скриншоты

pic pic pic pic
Последний раз редактировалось: spee2k (2017-11-24 00:27), всего редактировалось 10 раз(а)
28-Сен-2017 20:59
PROPER БУДЕТ? Криворукий рип, смотреть нельзя!
05-Окт-2017 21:10
заменена 1 серия!