Мистер Робот / Mr. Robot (2017) WEBRip [xvid/400p] (Сезон 3,серии 01-02 из 12) [IdeaFilm]

12-Окт-2017 20:30

Мистер Робот / Mr. Robot (2017) WEBRip [xvid/400p] (Сезон 3, серии 01-02 из 12) [IdeaFilm]


picТелекомпания: Universal Cable Productions
Жанр: Драма, криминал
Режиссер: Нильс Арден Оплев
В ролях: Рэми Малек, Брюс Олтмен, Майкл Бушеми, Карли Чаикин, Самрат Чакрабарти, Портия Даблдэй, Маурицио Ферриньо, Майкл Гилл, Джереми С. Холм, Диллон Мэтьюз
Описание:
История молодого программиста Эллиота, страдающего диссоциальным расстройством личности и решившего, что единственный приемлемый для него способ взаимодействия с людьми — это профессия хакера. Таким образом, он быстро оказывается в том самом месте, где пересекаются интересы его работодателя — фирмы, занимающейся кибербезопасностью, — и подпольных организаций, которые пытаются его завербовать с целью обрушения самых могучих американских корпораций.


Перевод: Профессиональный многоголосый - IDEAFILM
Продолжительность: ~ 00:50:00
Качество видео: WEBRip
Субтитры: Отсутствуют
Видео: 720x400 (1.80:1), 23.976 fps, XviD build 50 ~1500 kbps avg, 0.23 bit/pixel
Аудио: 48 kHz, AC3 Dolby Digital, 3/2 (L,C,R,l,r) + LFE ch, ~384 kbps

Mediainfo:

Общее
Полное имя                               : F:\IDEAFILM\Mr.Robot.S03.WEBRip\Mr.Robot.S03E01.WEBRip-IDEAFILM.avi
Формат                                   : AVI
Формат/Информация                        : Audio Video Interleave
Размер файла                             : 658 Мбайт
Продолжительность                        : 53 м. 44 с.
Общий поток                              : 1712 Кбит/сек
Программа кодирования                    : VirtualDubMod 1.5.10.2 (build 2540/release)
Библиотека кодирования                   : VirtualDubMod build 2540/release
Видео
Идентификатор                            : 0
Формат                                   : MPEG-4 Visual
Профиль формата                          : Advanced Simple@L5
Параметр BVOP формата                    : 4
Параметр QPel формата                    : Нет
Параметр GMC формата                     : Без точки перехода
Параметр матрицы формата                 : Default (MPEG)
Идентификатор кодека                     : XVID
Идентификатор кодека/Подсказка           : XviD
Продолжительность                        : 53 м. 44 с.
Битрейт                                  : 1319 Кбит/сек
Ширина                                   : 720 пикселей
Высота                                   : 400 пикселей
Соотношение сторон                       : 16:9
Частота кадров                           : 23,976 (24000/1001) кадра/сек
Цветовое пространство                    : YUV
Субдискретизация насыщенности            : 4:2:0
Битовая глубина                          : 8 бит
Тип развёртки                            : Прогрессивная
Метод сжатия                             : С потерями
Бит/(Пиксели*Кадры)                      : 0.191
Размер потока                            : 507 Мбайт (77%)
Библиотека кодирования                   : XviD 1.2.1 (UTC 2008-12-04)
Аудио
Идентификатор                            : 1
Формат                                   : AC-3
Формат/Информация                        : Audio Coding 3
Расширение режима                        : CM (complete main)
Параметр Endianness формата              : Big
Идентификатор кодека                     : 2000
Продолжительность                        : 53 м. 44 с.
Вид битрейта                             : Постоянный
Битрейт                                  : 384 Кбит/сек
Каналы                                   : 6 каналов
Расположение каналов                     : Front: L C R, Side: L R, LFE
Частота                                  : 48,0 КГц
Частота кадров                           : 31,250 кадров/сек (1536 spf)
Метод сжатия                             : С потерями
Размер потока                            : 148 Мбайт (22%)
Выравнивание                             : Разделение по промежуткам
Продолжительность промежутка             : 42  мс. (1,00 видеокадр)
Время предзагрузки промежутка            : 500  мс.

Скриншоты

pic pic pic pic