Спецназ / S.W.A.T (2017) WEBRip [xvid/400p] (Сезон 1, серии 01-09 из 22) [IdeaFilm]

03-Ноя-2017 16:19

Спецназ / S.W.A.T (2017) WEBRip [xvid/400p] (Сезон 1, серии 01-09 из 22) [IdeaFilm]


picТелекомпания: CBS Television Studios, MiddKid Productions, Original Film, Perfect Storm Entertainment
Жанр: Боевик, триллер, драма, криминал, приключения
Режиссер: Эрнесто Контрера, Хосе Мануэль Кравиото

В ролях: Кенни Джонсон, Стефани Сигман, Шемар Мур, Дэвид Лим, Патрик Ст. Эсприт, Аарон Бледсо, Лина Эско, Луис Ферриньо мл., Джей Хэррингтон, Джим Гэррити
Описание:
Лейтенанту полицейского спецназа Даниэлю Харрельсонупоручают возглавить отряд вышколенных профессионалов с крутым нравом и отсутствием щепетильности при выполнении заданий. Свежесформированная команда — последняя надежда городских властей на восстановление правопорядка в Лос-Анджелесе.


1xbet - Высокие коэффициенты. Большие выигрыши
http://bit.ly/2lyIZwl
Перевод: Профессиональный многоголосый - IDEAFILM
Продолжительность: ~ 00:45:00
Качество видео: WEBRip
Субтитры: Отсутствуют
Видео: 720x400 (1.80:1), 23.976 fps, XviD build 50 ~1500 kbps avg, 0.23 bit/pixel
Аудио: 48 kHz, AC3 Dolby Digital, 2 ch, ~192 kbps

Mediainfo:

Общее
Полное имя                               : F:\IDEAFILM\S.W.A.T.S01.WEBRip\S.W.A.T.S01E01.WEBRip.IDEAFILM.avi
Формат                                   : AVI
Формат/Информация                        : Audio Video Interleave
Размер файла                             : 547 Мбайт
Продолжительность                        : 45 м. 0 с.
Общий поток                              : 1700 Кбит/сек
Программа кодирования                    : VirtualDubMod 1.5.10.2 (build 2540/release)
Библиотека кодирования                   : VirtualDubMod build 2540/release
Видео
Идентификатор                            : 0
Формат                                   : MPEG-4 Visual
Профиль формата                          : Advanced Simple@L5
Параметр BVOP формата                    : 2
Параметр QPel формата                    : Нет
Параметр GMC формата                     : Без точки перехода
Параметр матрицы формата                 : Default (MPEG)
Идентификатор кодека                     : XVID
Идентификатор кодека/Подсказка           : XviD
Продолжительность                        : 45 м. 0 с.
Битрейт                                  : 1499 Кбит/сек
Ширина                                   : 720 пикселей
Высота                                   : 400 пикселей
Соотношение сторон                       : 16:9
Частота кадров                           : 23,976 (24000/1001) кадра/сек
Цветовое пространство                    : YUV
Субдискретизация насыщенности            : 4:2:0
Битовая глубина                          : 8 бит
Тип развёртки                            : Прогрессивная
Метод сжатия                             : С потерями
Бит/(Пиксели*Кадры)                      : 0.217
Размер потока                            : 483 Мбайт (88%)
Библиотека кодирования                   : XviD 1.2.1 (UTC 2008-12-04)
Аудио
Идентификатор                            : 1
Формат                                   : AC-3
Формат/Информация                        : Audio Coding 3
Расширение режима                        : CM (complete main)
Параметр Endianness формата              : Big
Идентификатор кодека                     : 2000
Продолжительность                        : 45 м. 0 с.
Вид битрейта                             : Постоянный
Битрейт                                  : 192 Кбит/сек
Каналы                                   : 2 канала
Расположение каналов                     : Front: L R
Частота                                  : 48,0 КГц
Частота кадров                           : 31,250 кадров/сек (1536 spf)
Метод сжатия                             : С потерями
Размер потока                            : 61,8 Мбайт (11%)
Выравнивание                             : Разделение по промежуткам
Продолжительность промежутка             : 42  мс. (1,00 видеокадр)
Время предзагрузки промежутка            : 500  мс.

Скриншоты

pic pic pic pic