Спецназ / S.W.A.T (2017) WEBRip [h.264/1080p] (Сезон 1, серии 01-10 из 22) [IdeaFilm]

03-Ноя-2017 16:24

Спецназ / S.W.A.T (2017) WEBRip [h.264/1080p] (Сезон 1, серии 01-10 из 22) [IdeaFilm]


picТелекомпания: CBS Television Studios, MiddKid Productions, Original Film, Perfect Storm Entertainment
Жанр: Боевик, триллер, драма, криминал, приключения
Режиссер: Эрнесто Контрера, Хосе Мануэль Кравиото

В ролях: Кенни Джонсон, Стефани Сигман, Шемар Мур, Дэвид Лим, Патрик Ст. Эсприт, Аарон Бледсо, Лина Эско, Луис Ферриньо мл., Джей Хэррингтон, Джим Гэррити
Описание:
Лейтенанту полицейского спецназа Даниэлю Харрельсонупоручают возглавить отряд вышколенных профессионалов с крутым нравом и отсутствием щепетильности при выполнении заданий. Свежесформированная команда — последняя надежда городских властей на восстановление правопорядка в Лос-Анджелесе.


1xbet - Высокие коэффициенты. Большие выигрыши
http://bit.ly/2lyIZwl
Перевод: Профессиональный многоголосый - IDEAFILM
Продолжительность: ~ 00:45:00
Качество видео: WEBRip 1080p
Субтитры: Отсутствуют
Видео: MPEG-4 AVC, ~ 7000 Кбит/с, 1920x1080
Аудио: Русский, английский (AC3, 2 ch, 192 Кбит/с)

Mediainfo:

Общее
Уникальный идентификатор                 : 244310544533196592512855180885810678896 (0xB7CC7FD50C454DD98DCEC73FFB730C70)
Полное имя                               : F:\IDEAFILM\S.W.A.T.S01.WEBRip.1080p\S.W.A.T.S01E01.WEBRip.1080p-IdeaFilm.mkv
Формат                                   : Matroska
Версия формата                           : Version 4 / Version 2
Размер файла                             : 2,26 Гбайт
Продолжительность                        : 45 м. 0 с.
Общий поток                              : 7200 Кбит/сек
Дата кодирования                         : UTC 2017-11-03 11:34:49
Программа кодирования                    : mkvmerge v12.0.0 ('Trust / Lust') 64bit
Библиотека кодирования                   : libebml v1.3.4 + libmatroska v1.4.5
Видео
Идентификатор                            : 1
Формат                                   : AVC
Формат/Информация                        : Advanced Video Codec
Профиль формата                          : Main@L4.1
Параметр CABAC формата                   : Да
Параметр ReFrames формата                : 3 кадра
Идентификатор кодека                     : V_MPEG4/ISO/AVC
Продолжительность                        : 45 м. 0 с.
Битрейт                                  : 6882 Кбит/сек
Ширина                                   : 1920 пикселей
Высота                                   : 1080 пикселей
Соотношение сторон                       : 16:9
Режим частоты кадров                     : Постоянный
Частота кадров                           : 23,976 (24000/1001) кадра/сек
Стандарт вещания                         : NTSC
Цветовое пространство                    : YUV
Субдискретизация насыщенности            : 4:2:0
Битовая глубина                          : 8 бит
Тип развёртки                            : Прогрессивная
Бит/(Пиксели*Кадры)                      : 0.138
Размер потока                            : 2,16 Гбайт (96%)
Язык                                     : English
Default                                  : Да
Forced                                   : Нет
Цветовой диапазон                        : Limited
Основные цвета                           : BT.709
Характеристики трансфера                 : BT.709
Коэффициенты матрицы                     : BT.709
Аудио #1
Идентификатор                            : 2
Формат                                   : AC-3
Формат/Информация                        : Audio Coding 3
Расширение режима                        : CM (complete main)
Параметр Endianness формата              : Big
Идентификатор кодека                     : A_AC3
Продолжительность                        : 45 м. 0 с.
Вид битрейта                             : Постоянный
Битрейт                                  : 192 Кбит/сек
Каналы                                   : 2 канала
Расположение каналов                     : Front: L R
Частота                                  : 48,0 КГц
Частота кадров                           : 31,250 кадров/сек (1536 spf)
Метод сжатия                             : С потерями
Размер потока                            : 61,8 Мбайт (3%)
Заголовок                                : IdeaFilm
Язык                                     : Russian
Default                                  : Да
Forced                                   : Нет
Аудио #2
Идентификатор                            : 3
Формат                                   : AAC
Формат/Информация                        : Advanced Audio Codec
Профиль формата                          : LC
Идентификатор кодека                     : A_AAC
Продолжительность                        : 44 м. 20 с.
Битрейт                                  : 125 Кбит/сек
Каналы                                   : 2 канала
Расположение каналов                     : Front: L R
Частота                                  : 48,0 КГц
Частота кадров                           : 46,875 кадров/сек (1024 spf)
Метод сжатия                             : С потерями
Задержка видео                           : 40 с. 0 мс.
Размер потока                            : 39,8 Мбайт (2%)
Язык                                     : English
Default                                  : Нет
Forced                                   : Нет

Скриншоты

pic pic pic pic