Секретные материалы / The X-Files (2018) WEBRip [H.264/720p] (11 сезон: 1-2 серии из 10) [IdeaFilm]

05-Янв-2018 13:39

Секретные материалы / The X-Files (2018) WEBRip [H.264/1080p] (11 сезон: 1-2 серии из 10) [IdeaFilm]


picТелекомпания: США, 20th Century Fox Television, Ten Thirteen Productions
Жанр: Фантастика, триллер, драма, детектив
Режиссер: Крис Картер, Дэрин Морган, Глен Морган
В ролях: Дэвид Духовны, Джиллиан Андерсон, Митч Пиледжи, Уильям Б. Дэвис, Робби Амелл, Том Брэйдвуд, Дин Хэглунд, Брюс Харвуд, Джоэл МакХэйл, Лорен Эмброуз]
Описание:
Государством был разработан уникальный проект, получивший название Секретные материалы. Над ним работают двое специалистов, главные герои кинокартины. Их имена Фокс Малдер и Дана Скалли. В поле зрения этой пары попадают дела, которые за долгие годы не сумели раскрыть специалисты Федерального Бюро Расследований. Фокс и Дана постоянно вовлекаются в расследования, которые имеют отношение к странностям, таким как нападение вампиров, пришельцев или же мутантов. Малдер всегда верил в то, что человечество не одно в этом мире. Он знает, что где-то рядом живут пришельцы, время от времени вмешивающиеся в жизнь простых людей. Об этом главный герой сериала «Секретные материалы» неоднократно говорил своей напарнице по расследованиям. Однако Скалли скептически относится к словам коллеги. Из-за этого у них постоянно случаются конфликты.


1xbet - Высокие коэффициенты. Большие выигрыши
http://bit.ly/2lyIZwl
Перевод: Профессиональный многоголосый - IDEAFILM
Продолжительность: ~ 00:45:00
Качество видео: WEBRip 720p
Субтитры: Отсутствуют
Видео: MPEG-4 AVC, ~ 7000 Кбит/с, 1280x720
Аудио: Русский, английский (AС3, 6 ch, 384 Кбит/с)

Mediainfo:

Video
ID                          : 1
Format                      : AVC
Format/Info                 : Advanced Video Codec
Format profile              : Main@L4.1
Format settings, CABAC      : Yes
Format settings, RefFrames  : 4 frames
Codec ID                    : V_MPEG4/ISO/AVC
Duration                    : 42 min 40 s
Bit rate                    : 6 817 kb/s
Width                       : 1 280 pixels
Height                      : 720 pixels
Display aspect ratio        : 16:9
Frame rate mode             : Constant
Frame rate                  : 23.976 (24000/1001) FPS
Standard                    : NTSC
Color space                 : YUV
Chroma subsampling          : 4:2:0
Bit depth                   : 8 bits
Scan type                   : Progressive
Bits/(Pixel*Frame)          : 0.309
Stream size                 : 2.03 GiB (87%)
Language                    : English
Default                     : Yes
Forced                      : No
Color range                 : Limited
Color primaries             : BT.709
Transfer characteristics    : BT.709
Matrix coefficients         : BT.709
Audio #1
ID                          : 2
Format                      : AC-3
Format/Info                 : Audio Coding 3
Format settings, Endianness : Big
Codec ID                    : A_AC3
Duration                    : 42 min 40 s
Bit rate mode               : Constant
Bit rate                    : 384 kb/s
Channel(s)                  : 6 channels
Channel positions           : Front: L C R, Side: L R, LFE
Sampling rate               : 48.0 kHz
Frame rate                  : 31.250 FPS (1536 SPF)
Bit depth                   : 16 bits
Compression mode            : Lossy
Stream size                 : 117 MiB (5%)
Title                       : IDEAFILM
Language                    : Russian
Service kind                : Complete Main
Default                     : Yes
Forced                      : No
Audio #2
ID                          : 3
Format                      : AC-3
Format/Info                 : Audio Coding 3
Codec ID                    : A_AC3
Duration                    : 42 min 0 s
Bit rate                    : 640 kb/s
Channel(s)                  : 6 channels
Sampling rate               : 48.0 kHz
Frame rate                  : 31.250 FPS (1536 SPF)
Compression mode            : Lossy
Stream size                 : 192 MiB (8%)
Language                    : English
Default                     : No
Forced                      : No

Скриншоты

pic pic pic pic

Добавлена 2 серия.