Секретные материалы / The X-Files (2018) WEBRip [XviD/400p] (11 сезон: 1-6 серии из 10) [IdeaFilm]

05-Янв-2018 13:40

Секретные материалы / The X-Files (2018) WEBRip [XviD/400p] (11 сезон: 1-6 серии из 10) [IdeaFilm]


picТелекомпания: США, 20th Century Fox Television, Ten Thirteen Productions
Жанр: Фантастика, триллер, драма, детектив
Режиссер: Крис Картер, Дэрин Морган, Глен Морган
В ролях: Дэвид Духовны, Джиллиан Андерсон, Митч Пиледжи, Уильям Б. Дэвис, Робби Амелл, Том Брэйдвуд, Дин Хэглунд, Брюс Харвуд, Джоэл МакХэйл, Лорен Эмброуз]
Описание:
Государством был разработан уникальный проект, получивший название Секретные материалы. Над ним работают двое специалистов, главные герои кинокартины. Их имена Фокс Малдер и Дана Скалли. В поле зрения этой пары попадают дела, которые за долгие годы не сумели раскрыть специалисты Федерального Бюро Расследований. Фокс и Дана постоянно вовлекаются в расследования, которые имеют отношение к странностям, таким как нападение вампиров, пришельцев или же мутантов. Малдер всегда верил в то, что человечество не одно в этом мире. Он знает, что где-то рядом живут пришельцы, время от времени вмешивающиеся в жизнь простых людей. Об этом главный герой сериала «Секретные материалы» неоднократно говорил своей напарнице по расследованиям. Однако Скалли скептически относится к словам коллеги. Из-за этого у них постоянно случаются конфликты.


1xbet - Высокие коэффициенты. Большие выигрыши
http://bit.ly/2lyIZwl
Перевод: Профессиональный многоголосый - IDEAFILM
Продолжительность: ~ 00:45:00
Качество видео: WEBRip
Субтитры: Отсутствуют
Видео: XviD MPEG-4, ~ 1800 Кбит/с, 720x400
Аудио: Русский (AС3, 6 ch, 384 Кбит/с)

Mediainfo:

Video
ID                          : 0
Format                      : MPEG-4 Visual
Format profile              : Advanced Simple@L5
Format settings, BVOP       : 2
Format settings, QPel       : No
Format settings, GMC        : No warppoints
Format settings, Matrix     : Default (H.263)
Muxing mode                 : Packed bitstream
Codec ID                    : XVID
Codec ID/Hint               : XviD
Duration                    : 42 min 40 s
Bit rate                    : 1 768 kb/s
Width                       : 720 pixels
Height                      : 400 pixels
Display aspect ratio        : 16:9
Frame rate                  : 23.976 (24000/1001) FPS
Color space                 : YUV
Chroma subsampling          : 4:2:0
Bit depth                   : 8 bits
Scan type                   : Progressive
Compression mode            : Lossy
Bits/(Pixel*Frame)          : 0.256
Stream size                 : 540 MiB (82%)
Writing library             : XviD 73
Audio
ID                          : 1
Format                      : AC-3
Format/Info                 : Audio Coding 3
Format settings, Endianness : Big
Codec ID                    : 2000
Duration                    : 42 min 40 s
Bit rate mode               : Constant
Bit rate                    : 384 kb/s
Channel(s)                  : 6 channels
Channel positions           : Front: L C R, Side: L R, LFE
Sampling rate               : 48.0 kHz
Frame rate                  : 31.250 FPS (1536 SPF)
Bit depth                   : 16 bits
Compression mode            : Lossy
Stream size                 : 117 MiB (18%)
Alignment                   : Aligned on interleaves
Interleave, duration        : 42  ms (1.00 video frame)
Interleave, preload duratio : 512  ms
Service kind                : Complete Main

Скриншоты

pic pic pic pic

Добавлена 6 серия.